#TITLE:Happy Snowman;
#SUBTITLE:Tony;
#ARTIST:Easy Pop;
#TITLETRANSLIT:;
#SUBTITLETRANSLIT:;
#ARTISTTRANSLIT:;
#CREDIT:Tony;
#BANNER:Snowman-bn.jpg;
#BACKGROUND:Snowman-bg.jpg;
#LYRICSPATH:;
#CDTITLE:happy snowman.png;
#MUSIC:happy_snowman.ogg;
#OFFSET:-0.200;
#SAMPLESTART:12.000;
#SAMPLELENGTH:12.000;
#SELECTABLE:YES;
#BPMS:0.000=180.000;
#STOPS:;
#BGCHANGES:;
// cache tags:
#FIRSTBEAT:0.000;
#LASTBEAT:317.500;
#SONGFILENAME:Songs/SDO/Happy Snowman/Happy Snowman.sm;
#HASMUSIC:1;
#HASBANNER:1;
#MUSICLENGTH:110.445;
// end cache tags

//---------------dance-single - ----------------
#NOTES:
     dance-single:
     :
     Hard:
     14:
     1.000,1.000,0.552,0.000,1.000,934.000,61.000,0.000,0.000,0.000:





1001
0110
0011
0101
,
0001
0010
1000
0100
0010
0001
0010
0100
,
0000
0001
0010
0001
0100
0010
1000
0100
,
0010
0001
0010
0100
0001
0100
0101
0101
,
0000
0001
1000
0010
1000
0001
1000
0010
,
1000
0001
0100
0001
0010
0001
0100
0001
,
0100
0001
0010
1000
0100
0010
0001
0010
,
0100
0001
0010
0001
0100
0001
1000
1001
,
0000
0001
0010
0100
0001
0010
0001
0100
,
0010
1000
0001
1000
0001
1000
0010
1000
,
0001
0100
0001
0010
0001
0100
0010
1000
,
0100
0010
0001
0010
0100
0001
0010
0001
,
0100
0010
1000
0001
1000
0001
0100
0001
,
0010
0001
0100
0010
1000
0001
1000
0010
,
0100
0001
0100
0001
0010
0001
0100
0010
,
1000
0100
0010
0001
0010
0100
0001
0100
,
1000
1100
1100
1100
,
1001
0000
0100
0000
0010
0100
0000
1001
0000
0100
0010
0000
0001
0000
0010
0000
,
0101
0000
1000
0000
0100
0010
0000
0101
0000
0010
0100
0000
1000
0000
0100
0000
,
1010
0000
0001
0000
0010
0100
0000
1100
0000
0100
0001
0000
0010
0000
0100
0000
,
1001
0000
0100
0000
0010
0100
0000
0110
0000
0001
0010
0000
0100
0000
1000
0000
,
1100
0000
0010
0000
0001
0010
0000
0110
0000
0010
0001
0000
0010
0000
0100
0000
,
1001
0000
0100
0000
0010
0100
0000
1100
0000
0010
0100
0000
0001
0000
0010
0000
,
0101
0000
1000
0000
0100
0010
0000
0110
0000
1000
0100
0000
1000
0000
0100
0000
,
1001
1001
1001
1001
,
1000
0100
0010
1000
0100
0010
0100
0000
0100
1000
0100
0010
1000
0010
0001
0000
,
0100
1000
0010
0100
1000
0010
0001
0000
0100
1000
0010
0100
1000
0100
0001
0000
,
1000
0100
0010
0100
1000
0000
0010
0000
0001
0010
0100
0010
0001
0000
0100
0000
,
1000
0100
0010
0100
1000
0000
0010
0000
0001
0010
0100
1000
0100
0010
0001
0010
,
0100
1000
0100
0010
0100
0001
1000
0010
0100
0001
0010
1000
0100
0010
0001
0010
,
0100
0001
0010
0100
1000
0100
0010
0100
0001
1000
0010
0100
0001
0010
0100
1000
,
0010
0100
0001
0010
0100
1000
0010
0100
0001
0010
1000
0100
0010
0001
0010
0100
,
0010
1000
0001
0100
0010
0001
0010
0100
1000
0100
0010
0001
0010
0100
0010
0001
,
0010
0100
1000
0100
0010
0001
0010
0100
1000
0010
0100
0001
0010
0100
0010
1000
,
0001
0010
0100
0010
0001
0010
0100
0001
0010
0100
1000
0010
0001
0100
0010
0001
,
0010
0100
1000
0100
0010
0001
0010
0100
0010
1000
0001
0010
0100
0010
1000
0001
,
0010
0100
1000
0100
0010
0001
0100
0010
0001
0010
0100
1000
0010
0100
0001
0010
,
0100
1000
0100
0010
0001
0100
0010
0001
0010
0100
1000
0010
0100
0001
1000
0100
,
0010
0001
0010
0100
1000
0100
0010
0001
0100
0010
1000
0100
0010
0001
0010
0100
,
0010
0100
0001
0010
0100
0010
0100
1000
0010
0100
0010
0001
0010
0100
0010
1000
,
0010
0100
0010
0001
0010
0100
1000
0100
0010
0001
0100
0010
0001
1000
0010
0100
,
0001
0010
0100
1000
0100
0010
0100
0001
0010
0100
1000
0010
0100
0001
0010
0100
,
1000
0100
0010
0001
0010
0100
1000
0100
0010
0100
0001
0010
0100
1000
0100
0010
,
0001
0010
0100
1000
0100
0010
0100
0010
0001
0100
0010
0001
0010
0100
1000
0100
,
0010
1000
0100
0010
0001
0100
0010
0001
0010
0100
1000
0100
0010
0001
0010
0100
,
1001
0000
0100
0000
0010
0100
0000
0110
0000
0010
0100
0000
1000
0000
0100
0000
,
1010
0000
0001
0000
0010
0100
0000
1100
0000
0100
0010
0000
0001
0000
0010
0000
,
1001
0000
0100
0000
0010
0001
0000
0011
0000
0100
1000
0000
0100
0000
0010
0000
,
0101
0000
0000
0011
0000
0000
1000
0000
0100
0000
0010
0000
0001
0000
0010
0000
,
0101
0000
1000
0000
0100
0010
0000
1100
0000
0100
0010
0000
0001
0000
0010
0000
,
1100
0000
0100
0000
0010
0001
0000
0011
0000
0010
0100
0000
1000
0000
0100
0000
,
1001
0000
0100
0000
0010
0001
0000
0110
0000
0010
0100
0000
1000
0000
0100
0000
,
1001
1001
1001
1001
,
1000
0100
0010
1000
0010
0100
0000
0000
1000
0100
0010
1000
0010
0100
0000
0000
,
1000
0100
0010
1000
0100
0010
0000
0000
1000
0100
0010
1000
0010
0100
0000
0000
,
1000
0100
0010
0100
1000
0000
0000
0000
1000
0100
0010
1000
0001
0010
0000
0000
,
1000
0100
0010
0100
1000
0100
0010
0100
1000
0100
0010
0001
1000
0100
0010
0001
,
1000
0100
0010
0100
0010
1000
0001
0010
0100
0010
0001
0010
0100
0010
1000
0001
,
0010
0100
0010
0001
0010
0100
1000
0010
0100
0001
0010
0100
1000
0100
0010
0001
,
0010
0100
0001
1000
0010
0100
0001
0010
0100
1000
0100
0010
0001
0100
0010
0001
,
1000
0010
0100
0001
0010
0100
1000
0010
0100
0001
0010
0100
1000
0010
0100
0001
,
0010
0100
1000
0010
1000
0100
0010
0001
0010
0100
1000
0100
0010
0001
0010
0100
,
1000
0010
0100
0001
0010
0100
1000
0100
0010
0001
0010
0100
1000
0100
0010
0100
,
0001
0010
0100
1000
0010
0100
0001
0010
0100
1000
0010
0100
0001
0010
1000
0100
,
0010
0001
0010
0100
0001
0010
0100
1000
0010
0100
0001
0010
0100
1000
0010
0100
,
0001
0010
0100
1000
0100
0010
1000
0001
0100
0010
0001
0010
0001
0010
0100
1000
,
0100
1000
0100
0010
0100
0001
0010
0100
1000
0010
0100
0001
0010
0100
1000
0100
,
0010
0001
0100
0010
0001
0010
0100
1000
0100
0010
0100
0010
0001
0010
0100
0010
,
0100
1000
0100
0010
0001
0100
0010
1000
0100
0010
0001
0010
0100
1000
0100
0010
,
0001
0010
0100
0010
1000
0001
0010
0100
1000
0010
0100
0001
0010
0100
1000
0100
,
0010
1000
0001
0010
0100
0010
0001
0010
0100
1000
0100
0010
0100
0001
0010
0100
,
1000
0100
0010
0001
0010
0100
1000
0100
0010
0001
0010
0100
1000
0100
0010
0001
,
0010
0100
1000
0010
0001
0100
0010
0001
1000
0010
0100
0010
0001
0010
0100
1000
,
0100
0010
0001
0010
0100
1000
0100
0010
0001
0010
0100
0010
0100
0010
0001
0010
,
1100
0000
0100
0000
0010
0100
0000
0110
0000
0010
0001
0000
0010
0000
0100
0000
,
1001
0000
0100
0000
0010
0100
0000
0110
0000
1000
0100
0000
0010
0000
0100
0000
,
1010
0000
0001
0000
0010
0100
0000
0110
0000
0010
0100
0000
1000
0000
0100
0000
,
1100
0000
0000
1010
0000
0000
1001
0000
0010
0000
0100
0000
1000
0000
0100
0000
,
1001
0000
0000
0101
0000
0000
0011
0000
0100
0000
0010
0000
0100
0000
0010
0000
,
1001
0000
0000
1001
0000
0000
1001
0000
0000
0000
0000
0000
0000
0000
0000
0000
;

//---------------dance-single - ----------------
#NOTES:
     dance-single:
     :
     Challenge:
     13:
     1.000,1.000,1.000,0.000,1.000,962.000,121.000,0.000,0.000,0.000:
0000
0000
0000
0000
,
0110
0001
0110
1000
0101
0010
0011
0100
,
0000
0001
1001
0100
0011
0100
1001
0100
,
0011
1000
1010
1000
0110
1000
1100
0110
,
0000
0100
0110
0001
1010
0100
0110
0001
,
0011
0001
1010
0100
0011
0001
1010
0100
,
0000
0100
0101
0010
1100
0001
0110
0001
,
1010
0100
0011
0100
1010
0100
0011
0110
,
1001
0000
0100
0000
1001
0000
0001
0000
0110
0001
0010
1000
0100
0000
1000
0000
,
0101
0000
0001
0010
0000
0010
0000
0100
0000
0100
0010
0000
0100
0000
0010
0000
,
0101
0000
1000
0100
0000
0010
0000
0010
0000
0100
1000
0000
0100
0000
0010
0000
,
1001
0000
0010
0100
0000
1000
0000
0100
0000
0100
0010
0000
0001
0000
0010
0000
,
0101
0000
1000
0100
0000
0010
0000
0001
0000
0010
1000
1000
0100
0010
0001
0000
,
1001
0000
0010
0100
0000
0010
0000
1000
0000
0100
1000
0000
0100
0000
0010
0000
,
0101
0000
0010
0100
0000
1000
0000
0100
0000
1000
0100
0000
0100
0000
0010
0000
,
1001
0000
0010
0100
0000
0010
0000
0010
0000
0001
0010
0000
0001
0000
0010
0000
,
0100
0010
0100
0001
0010
0100
0010
0100
1000
0001
0010
1000
0100
0010
0100
0000
,
0110
0000
1000
0000
0001
0010
0000
0010
0000
0100
0001
0000
0100
0000
0001
0000
,
1100
0000
0010
0000
1000
0001
0000
0010
0000
0001
1000
0000
0010
0000
1000
0000
,
0011
0000
0100
0000
0100
1000
0000
0010
0000
1000
0100
0000
0001
0000
1000
0000
,
0110
0000
0000
1001
0000
0000
1001
0000
0001
0010
1000
0100
0011
0000
0010
0000
,
1010
0000
0001
0000
0100
0001
0000
0100
0000
0001
0100
0000
0001
0000
1000
0000
,
0110
0000
1000
0000
0001
1000
0000
0001
0000
0001
1000
0000
0100
0000
0001
0000
,
1100
0000
0010
0000
1000
0001
0000
0100
0000
0010
0100
0000
0010
0000
1000
0000
,
0110
0110
0110
0110
,
0100
1000
0001
0010
0100
0001
0100
0000
1000
0100
1000
0001
0010
0001
0100
0000
,
1000
0010
0001
1000
0010
0001
0100
0000
1000
0010
0001
1000
0010
1000
0100
0000
,
0010
1000
0001
1000
0010
0000
0001
0000
0100
0001
1000
0001
0100
0000
1000
0000
,
0010
1000
0001
1000
0010
0100
0001
0010
0100
0001
1000
0010
1000
0010
0001
0010
,
1100
0010
1000
0001
1000
0100
0010
0001
1000
0100
0001
0010
1000
0001
0100
0001
,
1010
0100
0010
1000
0100
0001
0010
1000
0100
0010
0001
1000
0100
0001
1000
0010
,
0101
1000
0100
0001
0010
0001
0100
1000
0010
0001
0100
1000
0100
0001
0010
1000
,
0110
0001
0100
1000
0100
0010
0001
0100
0010
0001
0010
0100
0001
1000
0001
0100
,
1010
0100
0001
0010
1000
0100
1000
0010
0100
0010
0001
0100
1000
0010
0001
0010
,
1100
0001
1000
0001
0100
0010
1000
0100
0010
0001
0010
0100
1000
0010
0001
1000
,
0110
1000
0010
0100
0010
0001
0100
0010
0100
1000
0100
0001
0010
1000
0100
0001
,
1100
0010
0100
1000
0010
0100
1000
0001
0100
0010
1000
0001
0010
0001
0100
1000
,
1100
0010
1000
0001
0100
1000
0001
0100
0001
1000
0010
0001
1000
0100
0010
0100
,
1001
0010
0100
0001
0010
1000
0001
0100
1000
0001
0010
1000
0001
0100
0010
1000
,
0101
1000
0100
0010
1000
0001
0100
0010
0001
1000
0001
0100
0010
1000
0001
0010
,
1001
0010
1000
0100
1000
0010
0100
1000
0010
0100
1000
0001
0010
0100
0001
0010
,
1100
0001
1000
0100
0010
0001
0010
0100
0010
1000
0100
0010
1000
0100
0001
0010
,
0101
1000
0001
0100
0001
0100
0010
0100
0001
0100
1000
0001
0100
0010
1000
0001
,
0110
0001
1000
0100
0010
0001
0100
0010
0100
1000
0010
0100
0010
0001
0100
1000
,
0110
0001
0010
0001
0100
1000
0001
0100
0010
1000
0110
1000
0011
1000
0101
1000
,
0110
0000
1000
0000
0001
1000
0000
0001
0000
0001
1000
0000
0010
0000
1000
0000
,
1001
0000
0100
0000
0001
1000
0000
0010
0000
0001
0100
0000
0100
0000
0001
0000
,
0110
0000
1000
0000
0001
0100
0000
0001
0000
1000
0010
0000
1000
0000
0001
0000
,
1100
0000
0000
0101
0000
0000
0110
0000
1000
0100
0001
0010
1100
0000
0001
0000
,
1100
0000
0010
0000
1000
0001
0000
0010
0000
1000
0001
0000
0100
0000
0001
0000
,
0110
0000
1000
0000
0001
0100
0000
0010
0000
0001
1000
0000
0010
0000
1000
0000
,
0110
0000
1000
0000
0001
0100
0000
1000
0000
0010
0001
0000
0010
0000
1000
0000
,
0110
0110
0110
0110
,
0010
1000
0001
0010
0001
1000
0100
0000
0010
1000
0001
0010
0001
1000
0100
0000
,
0010
1000
0001
0010
0001
1000
0100
0000
0100
0001
1000
0100
1000
0001
0010
0000
,
0100
0001
1000
0100
1000
0001
0010
0000
0100
0001
1000
0100
1000
0001
0010
0000
,
0110
0001
0100
0001
0010
0001
0100
0001
0110
0001
0100
0001
0010
0100
0001
0100
,
0010
0100
0001
0010
1000
0010
0100
0001
1000
0010
0100
0010
1001
0001
0010
0001
,
0011
1000
0100
0010
0001
0100
0010
0001
1000
0100
1000
0010
0100
1000
0100
0010
,
1001
0100
0010
1000
0001
0010
0100
0010
1000
0010
1000
0001
0100
1000
0001
0100
,
1010
0001
1000
0100
0001
1000
0010
0001
1000
0100
0001
1000
0010
0001
1000
0100
,
0011
1000
0010
0001
0010
1000
0001
0100
0001
0100
0010
1000
0001
0100
0010
0001
,
0110
0001
1000
0100
0001
0100
0010
1000
0010
0100
0001
1000
0010
0100
0001
1000
,
0110
1000
0001
0010
0001
1000
0100
0001
1000
0010
0001
1000
0100
0001
0010
0001
,
1100
0010
0001
0010
0100
0001
0010
0001
0100
1000
0100
0001
1000
0100
0001
0010
,
1100
0001
1000
0010
1000
0001
0010
0100
1000
0010
0100
0010
0100
0001
1000
0001
,
0011
1000
0100
0001
0010
0001
0010
0100
1000
0010
0001
0100
0010
1000
0001
1000
,
0101
0010
1000
0010
0100
0001
0010
0100
1000
0100
0010
0001
0100
0001
1000
0100
,
1010
0001
0010
1000
0100
0001
0100
0010
0001
0010
1000
0001
0010
0001
1000
0010
,
1100
0001
0100
0010
1000
0100
0010
0100
0010
0001
0100
1000
0010
0001
0100
1000
,
0011
0100
0010
0001
0100
0010
0100
1000
0010
0100
0010
0001
0100
1000
0100
0010
,
1100
0010
0001
0100
0010
1000
0100
0010
0001
0100
0010
0100
0010
1000
0100
0001
,
0110
0001
1000
0001
0100
1000
0100
0010
0100
0001
1000
0010
0100
0001
1000
0100
,
1010
0001
1000
0100
0010
0001
1000
0001
0010
0001
1010
0001
0110
0001
1010
0001
,
0110
0000
1000
0000
0010
0001
0000
1001
0000
1000
0100
0000
0001
0000
1000
0000
,
0110
0000
1000
0000
0001
0010
0000
0110
0000
0100
1000
0000
0001
0000
1000
0000
,
0011
0000
0100
0000
0001
0010
0000
0011
0000
0001
1000
0000
0010
0000
1000
0000
,
0101
0000
0000
1010
0000
0000
0110
0000
0001
0000
1000
0000
0010
0000
1000
0000
,
1100
0000
0000
0011
0000
0000
1100
0000
0000
0000
0001
0000
1000
0000
0001
0000
,
1001
0000
0000
1001
0000
0000
0110
0000
0000
0000
0000
0000
0000
0000
0000
0000
;
